<?xml version="1.0" standalone="no"?>
<!DOCTYPE svg PUBLIC "-//W3C//DTD SVG 1.1//EN" "http://www.w3.org/Graphics/SVG/1.1/DTD/svg11.dtd" >
<svg xmlns="http://www.w3.org/2000/svg" xmlns:xlink="http://www.w3.org/1999/xlink" version="1.1">
<metadata>
Created by FontForge 20201107 at Fri Jun 23 03:47:25 2023
 By 
Sakana (c) Drizy Studio 2022
</metadata>
<defs>
<font id="Sakana-Regular" horiz-adv-x="778" >
  <font-face 
    font-family="Sakana"
    font-weight="400"
    font-style="italic"
    font-stretch="normal"
    units-per-em="1000"
    panose-1="0 0 0 0 0 0 0 0 0 0"
    ascent="750"
    descent="-250"
    x-height="700"
    cap-height="700"
    bbox="-151 -220 1285 998"
    underline-thickness="50"
    underline-position="-125"
    slope="-8"
    unicode-range="U+000D-2212"
  />
<missing-glyph horiz-adv-x="250" 
 />
    <glyph glyph-name=".notdef" horiz-adv-x="250" 
 />
    <glyph glyph-name=".null" horiz-adv-x="0" 
 />
    <glyph glyph-name=".null" horiz-adv-x="0" 
 />
    <glyph glyph-name="uni000D" unicode="&#xd;" horiz-adv-x="250" 
 />
    <glyph glyph-name="space" unicode=" " horiz-adv-x="260" 
 />
    <glyph glyph-name="exclam" unicode="!" horiz-adv-x="241" 
d="M129 700h180l-94 -460h-120zM48 70q5 38 32 61.5t65 23.5t58 -23.5t15 -61.5t-32 -61.5t-65 -23.5t-58 23.5t-15 61.5z" />
    <glyph glyph-name="quotedbl" unicode="&#x22;" horiz-adv-x="374" 
d="M131 717h120l-60 -280h-80zM324 717h120l-60 -280h-80z" />
    <glyph glyph-name="numbersign" unicode="#" horiz-adv-x="753" 
d="M391 700h104l-80 -200h147l80 200h104l-80 -200h127l-28 -100h-139l-53 -132h160l-28 -100h-173l-67 -168h-104l67 168h-147l-67 -168h-104l67 168h-123l28 100h136l53 132h-157l28 100h169zM322 268h147l53 132h-147z" />
    <glyph glyph-name="dollar" unicode="$" horiz-adv-x="716" 
d="M426 835h100l-19 -135h258l-99 -140h-179l-20 -142q70 -2 117.5 -14.5t77 -34t42.5 -52.5t13 -70q0 -45 -13.5 -89.5t-40 -79.5t-65 -56.5t-88.5 -21.5h-102l-16 -115h-100l16 115h-278l99 140h199l19 138h-19q-111 0 -162 44.5t-51 126.5q0 43 13 87.5t38 81t62 59.5
t85 23h94zM387 560q-36 -2 -61 -24t-29 -50q-5 -29 14 -44.5t57 -20.5zM428 140h31q38 0 55.5 22t21.5 50q5 31 -18.5 46.5t-70.5 18.5z" />
    <glyph glyph-name="percent" unicode="%" horiz-adv-x="839" 
d="M637 700h112l-452 -700h-112zM116 610q6 41 34 65.5t69 24.5h123q41 0 62 -24.5t16 -65.5l-24 -170q-6 -41 -34 -65.5t-69 -24.5h-123q-41 0 -62 24.5t-16 65.5zM314 493l11 83q3 25 -8 39.5t-33 14.5h-27h-7zM187 474q-3 -24 7.5 -39t32.5 -15h27q5 0 8.5 0.5t7.5 1.5
l-70 149zM541 260q6 41 34 65.5t69 24.5h123q41 0 62 -24.5t16 -65.5l-24 -170q-6 -41 -34 -65.5t-69 -24.5h-123q-41 0 -62 24.5t-16 65.5zM739 143l11 83q3 25 -8 39.5t-33 14.5h-27h-7zM612 124q-3 -24 7.5 -39t32.5 -15h27q5 0 8.5 0.5t7.5 1.5l-70 149z" />
    <glyph glyph-name="ampersand" unicode="&#x26;" horiz-adv-x="775" 
d="M718 278l-14 -100q-6 -40 -23.5 -73t-44.5 -56t-61.5 -36t-75.5 -13h-268q-81 0 -128 45t-47 117q0 68 35 119t89 83q-39 48 -39 113q0 14 1.5 28.5t6.5 29.5q21 78 74 121.5t132 43.5h355l-99 -140h-209q-24 0 -49 -13t-33 -40q-6 -21 0.5 -37.5t21.5 -28t35.5 -17.5
t42.5 -6h393l-20 -140h-75zM528 140l20 138h-164l-20 -1t-45.5 -7.5t-48.5 -20.5t-31 -40q-5 -18 0 -31t16.5 -21.5t27 -12.5t30.5 -4h215z" />
    <glyph glyph-name="quotesingle" unicode="'" horiz-adv-x="181" 
d="M131 717h120l-60 -280h-80z" />
    <glyph glyph-name="parenleft" unicode="(" horiz-adv-x="263" 
d="M224 -127q-40 0 -76.5 13t-62.5 36.5t-39 57t-7 73.5l72 517q6 41 28.5 74t55.5 56.5t73 36.5t80 13l-14 -100q-44 0 -72 -29.5t-35 -78.5l-64 -461q-7 -49 12 -78.5t63 -29.5z" />
    <glyph glyph-name="parenright" unicode=")" horiz-adv-x="263" 
d="M18 -27q44 0 71 29.5t34 78.5l66 461q7 49 -13 78.5t-64 29.5l14 100q41 0 77 -13t62.5 -36.5t40 -56.5t7.5 -74l-74 -517q-6 -40 -28 -73.5t-54.5 -57t-72 -36.5t-80.5 -13z" />
    <glyph glyph-name="asterisk" unicode="*" horiz-adv-x="516" 
d="M313 750h100l-21 -148l143 64l31 -90l-120 -54l104 -53l-55 -90l-125 64l-21 -148h-100l21 148l-143 -64l-31 90l120 54l-104 53l55 90l125 -64z" />
    <glyph glyph-name="plus" unicode="+" horiz-adv-x="491" 
d="M87 400h164l23 165h101l-23 -165h165l-14 -100h-165l-23 -165h-101l23 165h-164z" />
    <glyph glyph-name="comma" unicode="," horiz-adv-x="238" 
d="M47 70q5 38 32 61.5t65 23.5t58 -23.5t15 -61.5q-2 -14 -8 -28.5t-17 -25.5l-134 -139h-45l76 113q-23 8 -35 29t-7 51z" />
    <glyph glyph-name="hyphen" unicode="-" horiz-adv-x="361" 
d="M77 328h300l-14 -100h-300z" />
    <glyph glyph-name="period" unicode="." horiz-adv-x="231" 
d="M40 70q5 38 32 61.5t65 23.5t58 -23.5t15 -61.5t-32 -61.5t-65 -23.5t-58 23.5t-15 61.5z" />
    <glyph glyph-name="slash" unicode="/" horiz-adv-x="436" 
d="M392 700h112l-362 -700h-112z" />
    <glyph glyph-name="zero" unicode="0" horiz-adv-x="668" 
d="M104 520q6 41 23.5 74t44.5 56.5t62 36.5t75 13h247q41 0 72 -13t51.5 -36.5t29 -56.5t2.5 -74l-48 -340q-6 -40 -23.5 -73.5t-44.5 -57t-61.5 -36.5t-75.5 -13h-247q-40 0 -71.5 13t-52 36.5t-29 57t-2.5 73.5zM246 248q-7 -49 14.5 -78.5t65.5 -29.5h54q44 0 75 29.5
t38 78.5l28 204q7 49 -15 78.5t-66 29.5h-54q-44 0 -74.5 -29.5t-37.5 -78.5zM196 604l127 59l267 -571l-126 -59z" />
    <glyph glyph-name="one" unicode="1" horiz-adv-x="431" 
d="M381 0h-180l62 452q7 49 -8.5 78.5t-65.5 29.5h-29l-61 140h200q41 0 72 -13t51.5 -36t29 -56t2.5 -73z" />
    <glyph glyph-name="two" unicode="2" horiz-adv-x="695" 
d="M409 418q56 0 88.5 19t38.5 63q3 23 -17 41.5t-58 18.5h-271l-61 140h414q58 0 93.5 -19t54 -49t22.5 -67t-1 -73q-14 -103 -80.5 -158.5t-171.5 -55.5h-87q-55 0 -87 -15.5t-37 -50.5l-11 -72h366l61 -140h-622l26 189q9 63 31 106.5t55.5 71t77.5 39.5t97 12h79z" />
    <glyph glyph-name="three" unicode="3" horiz-adv-x="664" 
d="M240 418h123q22 0 44 6t40 17.5t29 28t11 37.5q0 27 -21 40t-45 13h-209l-61 140h355q79 0 119.5 -43.5t40.5 -121.5q0 -51 -22 -94.5t-58 -77.5q34 -23 55.5 -56.5t21.5 -77.5q0 -49 -17.5 -91t-48 -72.5t-72.5 -48t-91 -17.5h-414l99 140h271q15 0 32 4t30.5 12.5
t22.5 21.5t9 31q0 26 -20 40t-48 20.5t-56.5 7.5t-46.5 1h-93z" />
    <glyph glyph-name="four" unicode="4" horiz-adv-x="687" 
d="M256 700h173l-157 -396h159l55 396h180l-55 -396h98l-20 -140h-98l-23 -164h-180l23 164h-367z" />
    <glyph glyph-name="five" unicode="5" horiz-adv-x="663" 
d="M124 292l57 408h541l-99 -140h-301l-18 -128h167q94 0 144 -45.5t50 -130.5q0 -52 -15 -98.5t-44 -81.5t-72.5 -55.5t-99.5 -20.5h-414l99 140h271q38 0 64 21t31 53q5 40 -22 59t-83 19h-256z" />
    <glyph glyph-name="six" unicode="6" horiz-adv-x="669" 
d="M525 417q49 0 79.5 -16t47 -42t20 -60.5t-1.5 -72.5q-17 -116 -74 -171t-138 -55h-247q-40 0 -71.5 13t-52 36.5t-29 57t-2.5 73.5l48 340q6 41 23.5 74t44.5 56.5t62 36.5t75 13h393l-61 -140h-255q-44 0 -74.5 -29.5t-37.5 -78.5l-28 -204q-7 -49 14.5 -78.5
t65.5 -29.5h76q20 0 35.5 6.5t26 17t16.5 23t8 25.5q5 32 -10.5 48.5t-47.5 16.5h-256l19 140h332z" />
    <glyph glyph-name="seven" unicode="7" horiz-adv-x="586" 
d="M129 700h525l-392 -700h-195l314 560h-271z" />
    <glyph glyph-name="eight" unicode="8" horiz-adv-x="724" 
d="M184 366q-19 26 -31 50.5t-12 61.5q0 54 17 95.5t48 69.5t74.5 42.5t97.5 14.5h165q99 0 148 -45.5t36 -136.5q-4 -29 -11.5 -50t-18 -38.5t-24 -32t-30.5 -31.5q40 -27 63 -70.5t14 -106.5q-6 -41 -23.5 -75.5t-47.5 -60t-74 -39.5t-102 -14h-221q-58 0 -98 14
t-63.5 39.5t-31.5 60t-2 75.5q9 63 44 106.5t83 70.5zM315 493q-3 -21 4 -35.5t20 -23.5t29.5 -12.5t31.5 -3.5h43q15 0 32.5 3.5t32.5 12.5t26 23.5t14 35.5q3 19 -2.5 31.5t-15 20.5t-22 11.5t-24.5 3.5h-85q-12 0 -25.5 -3.5t-25.5 -11.5t-21 -20.5t-12 -31.5zM236 209
q-5 -36 19 -52.5t55 -16.5h143q15 0 31 4t29 12.5t22 21.5t12 31q3 24 -9 37.5t-32.5 20.5t-45.5 9t-48 2h-21q-22 0 -48 -2t-48.5 -9t-39 -20.5t-19.5 -37.5z" />
    <glyph glyph-name="nine" unicode="9" horiz-adv-x="669" 
d="M243 283q-42 0 -70 11.5t-45.5 31.5t-25 47t-7.5 57q0 49 13 97.5t39.5 86.5t67 62t95.5 24h247q41 0 72 -13t51.5 -36.5t29 -56.5t2.5 -74l-48 -340q-6 -40 -23.5 -73.5t-44.5 -57t-61.5 -36.5t-75.5 -13h-427l61 140h289q44 0 74.5 29.5t37.5 78.5l28 204
q7 49 -14.5 78.5t-65.5 29.5h-76q-20 0 -35.5 -6.5t-26 -17t-16.5 -23t-8 -25.5q-5 -32 10.5 -48.5t47.5 -16.5h256l-19 -140h-332z" />
    <glyph glyph-name="colon" unicode=":" horiz-adv-x="232" 
d="M93 445q6 38 32.5 61.5t64.5 23.5t58.5 -23.5t14.5 -61.5q-5 -38 -32 -61.5t-65 -23.5t-58 23.5t-15 61.5zM41 70q5 38 32 61.5t65 23.5t58 -23.5t15 -61.5q-6 -38 -32.5 -61.5t-64.5 -23.5t-58.5 23.5t-14.5 61.5z" />
    <glyph glyph-name="semicolon" unicode=";" horiz-adv-x="238" 
d="M93 445q6 38 32.5 61.5t64.5 23.5t58.5 -23.5t14.5 -61.5q-5 -38 -32 -61.5t-65 -23.5t-58 23.5t-15 61.5zM47 70q5 38 32 61.5t65 23.5t58 -23.5t15 -61.5q-2 -14 -8 -28.5t-17 -25.5l-134 -139h-45l76 113q-23 8 -35 29t-7 51z" />
    <glyph glyph-name="less" unicode="&#x3c;" horiz-adv-x="492" 
d="M85 384l456 188l-15 -110l-323 -133l285 -133l-15 -110l-404 188z" />
    <glyph glyph-name="equal" unicode="=" horiz-adv-x="412" 
d="M100 487h350l-14 -100h-350zM74 307h350l-14 -100h-350z" />
    <glyph glyph-name="greater" unicode="&#x3e;" horiz-adv-x="492" 
d="M499 264l-457 -188l16 110l322 133l-286 133l16 110l403 -188z" />
    <glyph glyph-name="question" unicode="?" horiz-adv-x="567" 
d="M123 240q7 52 19.5 93.5t33.5 70.5t53.5 44.5t79.5 15.5h82q26 0 50 16t28 41q5 32 -16 45.5t-51 13.5h-231l-52 120h349q41 0 69 -10t45 -27.5t24 -41.5t7 -51q0 -48 -12 -89.5t-36.5 -72t-62.5 -47.5t-90 -17h-66q-30 0 -48.5 -8.5t-30 -23t-16.5 -33t-8 -39.5h-120z
M69 70q5 38 32 61.5t65 23.5t58 -23.5t15 -61.5t-32 -61.5t-65 -23.5t-58 23.5t-15 61.5z" />
    <glyph glyph-name="at" unicode="@" horiz-adv-x="845" 
d="M644 197q44 0 65 29.5t28 78.5l26 187q7 49 -15.5 78.5t-66.5 29.5h-350q-44 0 -74 -29.5t-37 -78.5l-58 -411q-7 -49 15 -78.5t66 -29.5h304l-14 -100h-340q-40 0 -71.5 13t-52 36.5t-29 57t-2.5 73.5l66 467q6 41 23.5 74t44.5 56.5t62 36.5t75 13h423q41 0 72 -13
t51.5 -36.5t29 -56.5t2.5 -74l-34 -243q-11 -81 -58 -130.5t-128 -49.5h-28q-35 0 -59.5 4t-39.5 15q-20 -17 -40 -27t-39 -10h-113q-38 0 -58.5 22t-15.5 58l35 251q5 36 32.5 58t66.5 22h165q36 0 54.5 -22t13.5 -58l-19 -133h1q-1 -5 -1.5 -8.5t-1.5 -8.5q-5 -38 2 -50.5
t22 -12.5zM377 179h74q28 0 45.5 22t26.5 76l16 113h-132z" />
    <glyph glyph-name="A" unicode="A" horiz-adv-x="746" 
d="M480 350l-34 126l-142 -244l426 212l-202 -264l-358 -180h-190l406 700h190l74 -268zM576 0l-42 139l144 186l88 -325h-190z" />
    <glyph glyph-name="B" unicode="B" horiz-adv-x="768" 
d="M149 700h408q49 0 83 -10.5t56 -27.5t34 -38.5t17 -44t4.5 -43.5t-2.5 -36q-9 -65 -46 -113q34 -24 50 -60t16 -81q0 -59 -19 -104.5t-53 -77t-82 -48t-106 -16.5h-458zM290 423h186q45 0 66.5 21.5t25.5 48.5q2 11 0.5 22.5t-8 21.5t-19.5 16.5t-35 6.5h-197zM251 140
h227q54 0 79 22t30 51q2 11 0 23.5t-10.5 23t-24.5 17t-42 6.5h-239z" />
    <glyph glyph-name="C" unicode="C" horiz-adv-x="679" 
d="M211 0q-40 0 -71.5 13t-52 36.5t-29 57t-2.5 73.5l48 340q6 41 23.5 74t44.5 56.5t62 36.5t75 13h395l-99 -140h-219q-44 0 -74.5 -29.5t-37.5 -78.5l-28 -204q-7 -49 14.5 -78.5t65.5 -29.5h234l99 -140h-448z" />
    <glyph glyph-name="D" unicode="D" horiz-adv-x="789" 
d="M149 700h528q41 0 72 -13t51.5 -36.5t29 -56.5t2.5 -74l-48 -340q-6 -40 -23.5 -72.5t-44.5 -55.5t-61.5 -36.5t-75.5 -15.5h-528zM251 140h250q44 0 75 29.5t38 78.5l28 204q7 49 -15 78.5t-66 29.5h-252z" />
    <glyph glyph-name="E" unicode="E" horiz-adv-x="631" 
d="M149 700h550l-19 -140h-371l-19 -140h340l-183 -140h-177l-19 -140h379l-19 -140h-560z" />
    <glyph glyph-name="F" unicode="F" horiz-adv-x="602" 
d="M149 700h530l-19 -140h-351l-19 -140h320l-183 -140h-157l-39 -280h-180z" />
    <glyph glyph-name="G" unicode="G" horiz-adv-x="724" 
d="M719 180q-6 -40 -23.5 -73.5t-44.5 -57t-61.5 -36.5t-75.5 -13h-303q-40 0 -71.5 13t-52 36.5t-29 57t-2.5 73.5l48 340q6 41 23.5 74t44.5 56.5t62 36.5t75 13h395l-99 -140h-219q-44 0 -74.5 -29.5t-37.5 -78.5l-28 -204q-7 -49 14.5 -78.5t65.5 -29.5h207l23 157h-178
l-61 140h258q41 0 72 -13t51.5 -36.5t29 -56.5t2.5 -74z" />
    <glyph glyph-name="H" unicode="H" horiz-adv-x="797" 
d="M627 481l31 219h180l-22 -160zM149 700h180l-52 -369l616 211l-291 -243l-346 -118l-25 -181h-180zM596 258l205 177l-61 -435h-180z" />
    <glyph glyph-name="I" unicode="I" horiz-adv-x="282" 
d="M122 508l27 192h180l-6 -47zM116 464l200 145l-85 -609h-180z" />
    <glyph glyph-name="J" unicode="J" horiz-adv-x="514" 
d="M364 508l27 192h180l-6 -47zM358 464l200 145l-60 -429q-6 -39 -12.5 -72t-20 -57t-37.5 -37.5t-65 -13.5h-343l99 140h129q22 0 36 7.5t22.5 22t13.5 34.5t8 44z" />
    <glyph glyph-name="K" unicode="K" horiz-adv-x="738" 
d="M550 700h252l-542 -490l-29 -210h-180l98 700h180l-32 -229zM498 379l260 -379h-234l-173 252z" />
    <glyph glyph-name="L" unicode="L" horiz-adv-x="591" 
d="M149 700h180l-78 -560h339l-19 -140h-520z" />
    <glyph glyph-name="M" unicode="M" horiz-adv-x="955" 
d="M149 700h180l200 -337l294 337h180l-98 -700h-180l65 464l-294 -337l-200 337l-65 -464h-180z" />
    <glyph glyph-name="N" unicode="N" horiz-adv-x="805" 
d="M149 700h180l279 -465l65 465h180l-98 -700h-180l-279 465l-65 -465h-180z" />
    <glyph glyph-name="O" unicode="O" 
d="M104 520q6 41 23.5 74t44.5 56.5t62 36.5t75 13h357q41 0 72 -13t51.5 -36.5t29 -56.5t2.5 -74l-48 -340q-6 -40 -23.5 -73.5t-44.5 -57t-61.5 -36.5t-75.5 -13h-357q-40 0 -71.5 13t-52 36.5t-29 57t-2.5 73.5zM246 248q-7 -49 14.5 -78.5t65.5 -29.5h164q44 0 75 29.5
t38 78.5l28 204q7 49 -15 78.5t-66 29.5h-164q-44 0 -74.5 -29.5t-37.5 -78.5z" />
    <glyph glyph-name="P" unicode="P" horiz-adv-x="729" 
d="M149 700h419q112 0 161.5 -63.5t33.5 -177.5q-9 -60 -35 -107.5t-65.5 -80.5t-90.5 -50.5t-110 -17.5h-203l-28 -203h-180zM279 343h200q24 0 42 9.5t31 25t20.5 35.5t10.5 42q2 17 1.5 35t-7 34t-20 26t-36.5 10h-212z" />
    <glyph glyph-name="Q" unicode="Q" 
d="M104 520q6 41 23.5 74t44.5 56.5t62 36.5t75 13h357q41 0 72 -13t51.5 -36.5t29 -56.5t2.5 -74l-48 -340q-10 -72 -54.5 -119t-112.5 -58l-51 158q19 14 31.5 36t16.5 51l29 204q7 49 -15.5 78.5t-66.5 29.5h-164q-44 0 -74 -29.5t-37 -78.5l-29 -204q-7 -49 15 -78.5
t66 -29.5h17l51 -140h-184q-40 0 -71.5 13t-52 36.5t-29 57t-2.5 73.5zM347 219h157l143 -407l-192 100z" />
    <glyph glyph-name="R" unicode="R" horiz-adv-x="699" 
d="M149 700h408q96 0 144.5 -45.5t48.5 -127.5q0 -63 -22 -113.5t-61 -86.5t-92 -55t-115 -19h-194l-35 -253h-180zM286 393h186q45 0 67 26t27 60q2 13 1 27t-7.5 26t-19 20t-34.5 8h-197zM566 228l153 -228h-209l-151 228h207z" />
    <glyph glyph-name="S" unicode="S" horiz-adv-x="716" 
d="M441 418q77 0 130 -11.5t85.5 -33t46.5 -53.5t14 -73q0 -45 -13.5 -89.5t-40 -79.5t-65 -56.5t-88.5 -21.5h-480l99 140h330q38 0 55.5 22t21.5 50q5 35 -25 50.5t-90 15.5h-93q-111 0 -162 44.5t-51 126.5q0 43 13 87.5t38 81t62 59.5t85 23h452l-99 -140h-274
q-19 0 -35.5 -6t-29 -16.5t-20.5 -24t-10 -27.5q-5 -36 25 -52t90 -16h29z" />
    <glyph glyph-name="T" unicode="T" horiz-adv-x="651" 
d="M99 700h650l-99 -140h-156l-78 -560h-180l78 560h-116z" />
    <glyph glyph-name="U" unicode="U" horiz-adv-x="724" 
d="M709 180q-6 -40 -23.5 -73.5t-44.5 -57t-61.5 -36.5t-75.5 -13h-283q-40 0 -71.5 13t-52 36.5t-29 57t-2.5 73.5l73 520h180l-63 -452q-7 -49 14.5 -78.5t65.5 -29.5h90q44 0 75 29.5t38 78.5l63 452h180z" />
    <glyph glyph-name="V" unicode="V" horiz-adv-x="727" 
d="M459 0h-190l-190 700h190l127 -469l259 469h190z" />
    <glyph glyph-name="W" unicode="W" horiz-adv-x="1043" 
d="M389 0h-190l-120 700h190l69 -402l187 402h190l69 -402l187 402h190l-326 -700h-190l-69 402z" />
    <glyph glyph-name="X" unicode="X" horiz-adv-x="723" 
d="M1 0l302 350l-204 350h217l116 -200l172 200h217l-603 -700h-217zM536 321l187 -321h-217l-99 171z" />
    <glyph glyph-name="Y" unicode="Y" horiz-adv-x="683" 
d="M423 531l146 169h232l-298 -302zM248 0l46 329l-215 371h217l184 -326l-52 -374h-180z" />
    <glyph glyph-name="Z" unicode="Z" horiz-adv-x="642" 
d="M180 700h530l-380 -560h249l-19 -140h-530l380 560h-249z" />
    <glyph glyph-name="bracketleft" unicode="[" horiz-adv-x="253" 
d="M13 -127l124 877h211l-14 -100h-91l-96 -677h91l-14 -100h-211z" />
    <glyph glyph-name="backslash" unicode="\" horiz-adv-x="535" 
d="M393 0l-264 700h112l264 -700h-112z" />
    <glyph glyph-name="bracketright" unicode="]" horiz-adv-x="263" 
d="M18 -27h91l94 677h-91l14 100h211l-122 -877h-211z" />
    <glyph glyph-name="asciicircum" unicode="^" horiz-adv-x="547" 
d="M426 700l128 -430h-110l-91 304l-175 -304h-110l248 430h110z" />
    <glyph glyph-name="underscore" unicode="_" horiz-adv-x="611" 
d="M-39 -67h670l-14 -100h-670z" />
    <glyph glyph-name="grave" unicode="`" horiz-adv-x="284" 
d="M120 640l71 71l139 -167l-43 -43z" />
    <glyph glyph-name="a" unicode="a" horiz-adv-x="746" 
d="M480 350l-34 126l-142 -244l426 212l-202 -264l-358 -180h-190l406 700h190l74 -268zM576 0l-42 139l144 186l88 -325h-190z" />
    <glyph glyph-name="b" unicode="b" horiz-adv-x="768" 
d="M149 700h408q49 0 83 -10.5t56 -27.5t34 -38.5t17 -44t4.5 -43.5t-2.5 -36q-9 -65 -46 -113q34 -24 50 -60t16 -81q0 -59 -19 -104.5t-53 -77t-82 -48t-106 -16.5h-458zM290 423h186q45 0 66.5 21.5t25.5 48.5q2 11 0.5 22.5t-8 21.5t-19.5 16.5t-35 6.5h-197zM251 140
h227q54 0 79 22t30 51q2 11 0 23.5t-10.5 23t-24.5 17t-42 6.5h-239z" />
    <glyph glyph-name="c" unicode="c" horiz-adv-x="679" 
d="M211 0q-40 0 -71.5 13t-52 36.5t-29 57t-2.5 73.5l48 340q6 41 23.5 74t44.5 56.5t62 36.5t75 13h395l-99 -140h-219q-44 0 -74.5 -29.5t-37.5 -78.5l-28 -204q-7 -49 14.5 -78.5t65.5 -29.5h234l99 -140h-448z" />
    <glyph glyph-name="d" unicode="d" horiz-adv-x="789" 
d="M149 700h528q41 0 72 -13t51.5 -36.5t29 -56.5t2.5 -74l-48 -340q-6 -40 -23.5 -72.5t-44.5 -55.5t-61.5 -36.5t-75.5 -15.5h-528zM251 140h250q44 0 75 29.5t38 78.5l28 204q7 49 -15 78.5t-66 29.5h-252z" />
    <glyph glyph-name="e" unicode="e" horiz-adv-x="631" 
d="M149 700h550l-19 -140h-371l-19 -140h340l-183 -140h-177l-19 -140h379l-19 -140h-560z" />
    <glyph glyph-name="f" unicode="f" horiz-adv-x="602" 
d="M149 700h530l-19 -140h-351l-19 -140h320l-183 -140h-157l-39 -280h-180z" />
    <glyph glyph-name="g" unicode="g" horiz-adv-x="724" 
d="M719 180q-6 -40 -23.5 -73.5t-44.5 -57t-61.5 -36.5t-75.5 -13h-303q-40 0 -71.5 13t-52 36.5t-29 57t-2.5 73.5l48 340q6 41 23.5 74t44.5 56.5t62 36.5t75 13h395l-99 -140h-219q-44 0 -74.5 -29.5t-37.5 -78.5l-28 -204q-7 -49 14.5 -78.5t65.5 -29.5h207l23 157h-178
l-61 140h258q41 0 72 -13t51.5 -36.5t29 -56.5t2.5 -74z" />
    <glyph glyph-name="h" unicode="h" horiz-adv-x="797" 
d="M627 481l31 219h180l-22 -160zM149 700h180l-52 -369l616 211l-291 -243l-346 -118l-25 -181h-180zM596 258l205 177l-61 -435h-180z" />
    <glyph glyph-name="i" unicode="i" horiz-adv-x="282" 
d="M122 508l27 192h180l-6 -47zM116 464l200 145l-85 -609h-180z" />
    <glyph glyph-name="j" unicode="j" horiz-adv-x="514" 
d="M364 508l27 192h180l-6 -47zM358 464l200 145l-60 -429q-6 -39 -12.5 -72t-20 -57t-37.5 -37.5t-65 -13.5h-343l99 140h129q22 0 36 7.5t22.5 22t13.5 34.5t8 44z" />
    <glyph glyph-name="k" unicode="k" horiz-adv-x="738" 
d="M550 700h252l-542 -490l-29 -210h-180l98 700h180l-32 -229zM498 379l260 -379h-234l-173 252z" />
    <glyph glyph-name="l" unicode="l" horiz-adv-x="591" 
d="M149 700h180l-78 -560h339l-19 -140h-520z" />
    <glyph glyph-name="m" unicode="m" horiz-adv-x="955" 
d="M149 700h180l200 -337l294 337h180l-98 -700h-180l65 464l-294 -337l-200 337l-65 -464h-180z" />
    <glyph glyph-name="n" unicode="n" horiz-adv-x="805" 
d="M149 700h180l279 -465l65 465h180l-98 -700h-180l-279 465l-65 -465h-180z" />
    <glyph glyph-name="o" unicode="o" 
d="M104 520q6 41 23.5 74t44.5 56.5t62 36.5t75 13h357q41 0 72 -13t51.5 -36.5t29 -56.5t2.5 -74l-48 -340q-6 -40 -23.5 -73.5t-44.5 -57t-61.5 -36.5t-75.5 -13h-357q-40 0 -71.5 13t-52 36.5t-29 57t-2.5 73.5zM246 248q-7 -49 14.5 -78.5t65.5 -29.5h164q44 0 75 29.5
t38 78.5l28 204q7 49 -15 78.5t-66 29.5h-164q-44 0 -74.5 -29.5t-37.5 -78.5z" />
    <glyph glyph-name="p" unicode="p" horiz-adv-x="729" 
d="M149 700h419q112 0 161.5 -63.5t33.5 -177.5q-9 -60 -35 -107.5t-65.5 -80.5t-90.5 -50.5t-110 -17.5h-203l-28 -203h-180zM279 343h200q24 0 42 9.5t31 25t20.5 35.5t10.5 42q2 17 1.5 35t-7 34t-20 26t-36.5 10h-212z" />
    <glyph glyph-name="q" unicode="q" 
d="M104 520q6 41 23.5 74t44.5 56.5t62 36.5t75 13h357q41 0 72 -13t51.5 -36.5t29 -56.5t2.5 -74l-48 -340q-10 -72 -54.5 -119t-112.5 -58l-51 158q19 14 31.5 36t16.5 51l29 204q7 49 -15.5 78.5t-66.5 29.5h-164q-44 0 -74 -29.5t-37 -78.5l-29 -204q-7 -49 15 -78.5
t66 -29.5h17l51 -140h-184q-40 0 -71.5 13t-52 36.5t-29 57t-2.5 73.5zM347 219h157l143 -407l-192 100z" />
    <glyph glyph-name="r" unicode="r" horiz-adv-x="699" 
d="M149 700h408q96 0 144.5 -45.5t48.5 -127.5q0 -63 -22 -113.5t-61 -86.5t-92 -55t-115 -19h-194l-35 -253h-180zM286 393h186q45 0 67 26t27 60q2 13 1 27t-7.5 26t-19 20t-34.5 8h-197zM566 228l153 -228h-209l-151 228h207z" />
    <glyph glyph-name="s" unicode="s" horiz-adv-x="716" 
d="M441 418q77 0 130 -11.5t85.5 -33t46.5 -53.5t14 -73q0 -45 -13.5 -89.5t-40 -79.5t-65 -56.5t-88.5 -21.5h-480l99 140h330q38 0 55.5 22t21.5 50q5 35 -25 50.5t-90 15.5h-93q-111 0 -162 44.5t-51 126.5q0 43 13 87.5t38 81t62 59.5t85 23h452l-99 -140h-274
q-19 0 -35.5 -6t-29 -16.5t-20.5 -24t-10 -27.5q-5 -36 25 -52t90 -16h29z" />
    <glyph glyph-name="t" unicode="t" horiz-adv-x="651" 
d="M99 700h650l-99 -140h-156l-78 -560h-180l78 560h-116z" />
    <glyph glyph-name="u" unicode="u" horiz-adv-x="724" 
d="M709 180q-6 -40 -23.5 -73.5t-44.5 -57t-61.5 -36.5t-75.5 -13h-283q-40 0 -71.5 13t-52 36.5t-29 57t-2.5 73.5l73 520h180l-63 -452q-7 -49 14.5 -78.5t65.5 -29.5h90q44 0 75 29.5t38 78.5l63 452h180z" />
    <glyph glyph-name="v" unicode="v" horiz-adv-x="727" 
d="M459 0h-190l-190 700h190l127 -469l259 469h190z" />
    <glyph glyph-name="w" unicode="w" horiz-adv-x="1043" 
d="M389 0h-190l-120 700h190l69 -402l187 402h190l69 -402l187 402h190l-326 -700h-190l-69 402z" />
    <glyph glyph-name="x" unicode="x" horiz-adv-x="723" 
d="M1 0l302 350l-204 350h217l116 -200l172 200h217l-603 -700h-217zM536 321l187 -321h-217l-99 171z" />
    <glyph glyph-name="y" unicode="y" horiz-adv-x="683" 
d="M423 531l146 169h232l-298 -302zM248 0l46 329l-215 371h217l184 -326l-52 -374h-180z" />
    <glyph glyph-name="z" unicode="z" horiz-adv-x="642" 
d="M180 700h530l-380 -560h249l-19 -140h-530l380 560h-249z" />
    <glyph glyph-name="braceleft" unicode="{" horiz-adv-x="354" 
d="M81 356q44 0 71.5 29.5t34.5 78.5l15 106q6 41 28 74t55 56.5t73 36.5t80 13l-14 -100q-44 0 -71.5 -29.5t-34.5 -78.5l-15 -106q-5 -41 -27.5 -73.5t-54.5 -56.5q26 -23 38.5 -56t7.5 -74l-15 -106q-7 -49 12.5 -78.5t63.5 -29.5l-14 -100q-40 0 -76.5 13t-62.5 36.5
t-39.5 57t-7.5 73.5l15 106q7 49 -12.5 78.5t-63.5 29.5z" />
    <glyph glyph-name="bar" unicode="|" horiz-adv-x="161" 
d="M136 750h100l-134 -950h-100z" />
    <glyph glyph-name="braceright" unicode="}" horiz-adv-x="354" 
d="M359 256q-44 0 -71.5 -29.5t-34.5 -78.5l-15 -106q-6 -40 -28.5 -73.5t-55.5 -57t-72.5 -36.5t-80.5 -13l14 100q44 0 72 29.5t35 78.5l14 106q5 41 27.5 74t55.5 57q-25 23 -37.5 56t-7.5 73l14 106q7 49 -12 78.5t-63 29.5l14 100q41 0 77 -13t62 -36.5t39 -56.5t7 -74
l-15 -106q-7 -49 12.5 -78.5t63.5 -29.5z" />
    <glyph glyph-name="exclamdown" unicode="&#xa1;" horiz-adv-x="241" 
d="M191.008 -139.957h-179.989l93.9941 459.972h119.993zM272.003 490.004q-5 -37.9971 -31.998 -61.4961q-26.998 -23.498 -64.9961 -23.498t-57.9961 23.498q-19.999 23.499 -14.999 61.4961q4.99902 37.998 31.998 61.4971q26.998 23.498 64.9961 23.498
q37.9971 0 57.9961 -23.498q19.999 -23.499 14.999 -61.4971z" />
    <glyph glyph-name="cent" unicode="&#xa2;" horiz-adv-x="690" 
d="M212 0q-40 0 -72 13t-52.5 36.5t-29 57t-2.5 73.5l33 226q6 41 23.5 74t44 56.5t61.5 36.5t75 13h85l26 182h100l-26 -182h210l-98 -140h-131l-44 -306h145l100 -140h-264l-26 -182h-100l26 182h-84zM358 445q-39 -4 -67 -33t-33 -74l-11 -90q-6 -46 12 -75t56 -33z" />
    <glyph glyph-name="sterling" unicode="&#xa3;" horiz-adv-x="613" 
d="M205 520q6 41 23.5 74t44.5 56.5t62 36.5t75 13h254l-99 -140h-78q-44 0 -74.5 -29.5t-37.5 -78.5l-8 -58h174l-14 -100h-174l-22 -154h281l-19 -140h-461l41 294h-121l14 100h121z" />
    <glyph glyph-name="yen" unicode="&#xa5;" horiz-adv-x="683" 
d="M423 531l146 169h232l-298 -302zM159 207h118l6 45h-117l14 100h101l-202 348h217l184 -326l-3 -22h129l-14 -100h-129l-6 -45h128l-14 -100h-128l-15 -107h-180l15 107h-118z" />
    <glyph glyph-name="dieresis" unicode="&#xa8;" horiz-adv-x="363" 
d="M112 582q4 27 22.5 43.5t45.5 16.5t41.5 -16.5t10.5 -43.5t-22.5 -43.5t-45.5 -16.5t-41.5 16.5t-10.5 43.5zM294 582q4 27 22.5 43.5t45.5 16.5t41.5 -16.5t10.5 -43.5t-22.5 -43.5t-45.5 -16.5t-41.5 16.5t-10.5 43.5z" />
    <glyph glyph-name="plusminus" unicode="&#xb1;" horiz-adv-x="491" 
d="M92 436h164l23 165h101l-23 -165h165l-14 -100h-165l-23 -165h-101l23 165h-164zM92 100h360l-14 -100h-360z" />
    <glyph glyph-name="acute" unicode="&#xb4;" horiz-adv-x="258" 
d="M107 544l139 167l71 -71l-167 -139z" />
    <glyph glyph-name="cedilla" unicode="&#xb8;" horiz-adv-x="345" 
d="M223 -29q14 0 29 -3.5t27 -13t18 -26t2 -41.5q-7 -50 -46.5 -78.5t-105.5 -28.5q-43 0 -76 11.5t-65 35.5l65 62q20 -15 39.5 -22t47.5 -7q13 0 25.5 3.5t14.5 18.5q2 17 -7.5 22t-16.5 5h-101l58 91h109z" />
    <glyph glyph-name="questiondown" unicode="&#xbf;" horiz-adv-x="577" 
d="M523.008 320.015q-7 -51.9971 -19.499 -93.4941q-12.499 -41.498 -33.498 -70.4961t-53.4971 -44.4971t-79.4951 -15.499h-81.9951q-25.998 0 -49.9961 -15.999q-23.999 -15.999 -27.999 -40.9971q-4.99902 -31.998 15.999 -45.498q20.999 -13.499 50.9971 -13.499
h230.986l51.9961 -119.992h-348.979q-40.9971 0 -68.9951 9.99902q-27.999 9.99902 -44.998 27.498t-23.998 41.498q-7 23.998 -7 50.9971q0 47.9971 12 89.4941q11.999 41.4971 36.4971 71.9961q24.499 30.498 62.4961 47.4971q37.998 16.999 89.9951 16.999h65.9961
q29.998 0 48.4971 8.49902q18.498 8.49902 29.998 22.999q11.499 14.499 16.499 32.9971q4.99902 18.499 7.99902 39.498h119.993zM577.004 490.004q-4.99902 -37.9971 -31.998 -61.4961q-26.998 -23.498 -64.9961 -23.498q-37.9971 0 -57.9961 23.498
q-19.999 23.499 -14.999 61.4961q5 37.998 31.998 61.4971q26.998 23.498 64.9961 23.498q37.9971 0 57.9961 -23.498q19.999 -23.499 14.999 -61.4971z" />
    <glyph glyph-name="Agrave" unicode="&#xc0;" horiz-adv-x="746" 
d="M480 350l-34 126l-142 -244l426 212l-202 -264l-358 -180h-190l406 700h190l74 -268zM576 0l-42 139l144 186l88 -325h-190zM368 915l71 71l139 -167l-43 -43z" />
    <glyph glyph-name="Aacute" unicode="&#xc1;" horiz-adv-x="746" 
d="M480 350l-34 126l-142 -244l426 212l-202 -264l-358 -180h-190l406 700h190l74 -268zM576 0l-42 139l144 186l88 -325h-190zM410 819l139 167l71 -71l-167 -139z" />
    <glyph glyph-name="Acircumflex" unicode="&#xc2;" horiz-adv-x="746" 
d="M480 350l-34 126l-142 -244l426 212l-202 -264l-358 -180h-190l406 700h190l74 -268zM576 0l-42 139l144 186l88 -325h-190zM689 775h-124l-57 113l-88 -113h-124l181 174h79z" />
    <glyph glyph-name="Atilde" unicode="&#xc3;" horiz-adv-x="746" 
d="M480 350l-34 126l-142 -244l426 212l-202 -264l-358 -180h-190l406 700h190l74 -268zM576 0l-42 139l144 186l88 -325h-190zM295 775q4 30 13.5 58t26 49t41 34t58.5 13q30 0 50 -10t35 -22.5t28.5 -22.5t29.5 -10q9 0 14 5t8 12t4.5 15.5t2.5 14.5h100
q-4 -28 -14.5 -54.5t-27.5 -47t-41 -33t-55 -12.5q-42 0 -65 10t-36 22.5t-20.5 22.5t-17.5 10q-9 0 -15.5 -6t-10 -14t-5.5 -17.5t-3 -16.5h-100z" />
    <glyph glyph-name="Adieresis" unicode="&#xc4;" horiz-adv-x="746" 
d="M480 350l-34 126l-142 -244l426 212l-202 -264l-358 -180h-190l406 700h190l74 -268zM576 0l-42 139l144 186l88 -325h-190zM362 857q4 27 22.5 43.5t45.5 16.5t41.5 -16.5t10.5 -43.5t-22.5 -43.5t-45.5 -16.5t-41.5 16.5t-10.5 43.5zM544 857q4 27 22.5 43.5t45.5 16.5
t41.5 -16.5t10.5 -43.5t-22.5 -43.5t-45.5 -16.5t-41.5 16.5t-10.5 43.5z" />
    <glyph glyph-name="Aring" unicode="&#xc5;" horiz-adv-x="746" 
d="M480 350l-34 126l-142 -244l426 212l-202 -264l-358 -180h-190l406 700h190l74 -268zM576 0l-42 139l144 186l88 -325h-190zM379 887q7 50 46.5 80.5t99.5 30.5q58 0 88.5 -30.5t23.5 -80.5q-7 -51 -46.5 -81.5t-97.5 -30.5q-60 0 -90.5 30.5t-23.5 81.5zM479 887
q-2 -14 5 -23t21 -9q13 0 21.5 9t10.5 23t-4.5 22.5t-19.5 8.5q-14 0 -23 -8.5t-11 -22.5z" />
    <glyph glyph-name="AE" unicode="&#xc6;" horiz-adv-x="1032" 
d="M386 700h714l-19 -140h-371l-19 -140h340l-183 -140h-177l-19 -140h379l-19 -140h-560l78 560h-35l-325 -560h-190z" />
    <glyph glyph-name="Ccedilla" unicode="&#xc7;" horiz-adv-x="679" 
d="M211 0q-40 0 -71.5 13t-52 36.5t-29 57t-2.5 73.5l48 340q6 41 23.5 74t44.5 56.5t62 36.5t75 13h395l-99 -140h-219q-44 0 -74.5 -29.5t-37.5 -78.5l-28 -204q-7 -49 14.5 -78.5t65.5 -29.5h234l99 -140h-448zM445 -29q14 0 29 -3.5t27 -13t18 -26t2 -41.5
q-7 -50 -46.5 -78.5t-105.5 -28.5q-43 0 -76 11.5t-65 35.5l65 62q20 -15 39.5 -22t47.5 -7q13 0 25.5 3.5t14.5 18.5q2 17 -7.5 22t-16.5 5h-101l58 91h109z" />
    <glyph glyph-name="Egrave" unicode="&#xc8;" horiz-adv-x="631" 
d="M149 700h550l-19 -140h-371l-19 -140h340l-183 -140h-177l-19 -140h379l-19 -140h-560zM320 915l71 71l139 -167l-43 -43z" />
    <glyph glyph-name="Eacute" unicode="&#xc9;" horiz-adv-x="631" 
d="M149 700h550l-19 -140h-371l-19 -140h340l-183 -140h-177l-19 -140h379l-19 -140h-560zM362 819l139 167l71 -71l-167 -139z" />
    <glyph glyph-name="Ecircumflex" unicode="&#xca;" horiz-adv-x="631" 
d="M149 700h550l-19 -140h-371l-19 -140h340l-183 -140h-177l-19 -140h379l-19 -140h-560zM641 775h-124l-57 113l-88 -113h-124l181 174h79z" />
    <glyph glyph-name="Edieresis" unicode="&#xcb;" horiz-adv-x="631" 
d="M149 700h550l-19 -140h-371l-19 -140h340l-183 -140h-177l-19 -140h379l-19 -140h-560zM314 857q4 27 22.5 43.5t45.5 16.5t41.5 -16.5t10.5 -43.5t-22.5 -43.5t-45.5 -16.5t-41.5 16.5t-10.5 43.5zM496 857q4 27 22.5 43.5t45.5 16.5t41.5 -16.5t10.5 -43.5t-22.5 -43.5
t-45.5 -16.5t-41.5 16.5t-10.5 43.5z" />
    <glyph glyph-name="Igrave" unicode="&#xcc;" horiz-adv-x="282" 
d="M122 508l27 192h180l-6 -47zM116 464l200 145l-85 -609h-180zM135 915l71 71l139 -167l-43 -43z" />
    <glyph glyph-name="Iacute" unicode="&#xcd;" horiz-adv-x="282" 
d="M122 508l27 192h180l-6 -47zM116 464l200 145l-85 -609h-180zM177 819l139 167l71 -71l-167 -139z" />
    <glyph glyph-name="Icircumflex" unicode="&#xce;" horiz-adv-x="282" 
d="M122 508l27 192h180l-6 -47zM116 464l200 145l-85 -609h-180zM456 775h-124l-57 113l-88 -113h-124l181 174h79z" />
    <glyph glyph-name="Idieresis" unicode="&#xcf;" horiz-adv-x="282" 
d="M122 508l27 192h180l-6 -47zM116 464l200 145l-85 -609h-180zM129 857q4 27 22.5 43.5t45.5 16.5t41.5 -16.5t10.5 -43.5t-22.5 -43.5t-45.5 -16.5t-41.5 16.5t-10.5 43.5zM311 857q4 27 22.5 43.5t45.5 16.5t41.5 -16.5t10.5 -43.5t-22.5 -43.5t-45.5 -16.5t-41.5 16.5
t-10.5 43.5z" />
    <glyph glyph-name="Eth" unicode="&#xd0;" horiz-adv-x="865" 
d="M225 700h528q41 0 72 -13t51.5 -36.5t29 -56.5t2.5 -74l-48 -340q-6 -40 -23.5 -72.5t-44.5 -55.5t-61.5 -36.5t-75.5 -15.5h-528l41 294h-106l14 100h106zM327 140h250q44 0 75 29.5t38 78.5l28 204q7 49 -15 78.5t-66 29.5h-252l-23 -166h140l-14 -100h-140z" />
    <glyph glyph-name="Ntilde" unicode="&#xd1;" horiz-adv-x="805" 
d="M149 700h180l279 -465l65 465h180l-98 -700h-180l-279 465l-65 -465h-180zM305 775q4 30 13.5 58t26 49t41 34t58.5 13q30 0 50 -10t35 -22.5t28.5 -22.5t29.5 -10q9 0 14 5t8 12t4.5 15.5t2.5 14.5h100q-4 -28 -14.5 -54.5t-27.5 -47t-41 -33t-55 -12.5q-42 0 -65 10
t-36 22.5t-20.5 22.5t-17.5 10q-9 0 -15.5 -6t-10 -14t-5.5 -17.5t-3 -16.5h-100z" />
    <glyph glyph-name="Ograve" unicode="&#xd2;" 
d="M104 520q6 41 23.5 74t44.5 56.5t62 36.5t75 13h357q41 0 72 -13t51.5 -36.5t29 -56.5t2.5 -74l-48 -340q-6 -40 -23.5 -73.5t-44.5 -57t-61.5 -36.5t-75.5 -13h-357q-40 0 -71.5 13t-52 36.5t-29 57t-2.5 73.5zM246 248q-7 -49 14.5 -78.5t65.5 -29.5h164q44 0 75 29.5
t38 78.5l28 204q7 49 -15 78.5t-66 29.5h-164q-44 0 -74.5 -29.5t-37.5 -78.5zM363 915l71 71l139 -167l-43 -43z" />
    <glyph glyph-name="Oacute" unicode="&#xd3;" 
d="M104 520q6 41 23.5 74t44.5 56.5t62 36.5t75 13h357q41 0 72 -13t51.5 -36.5t29 -56.5t2.5 -74l-48 -340q-6 -40 -23.5 -73.5t-44.5 -57t-61.5 -36.5t-75.5 -13h-357q-40 0 -71.5 13t-52 36.5t-29 57t-2.5 73.5zM246 248q-7 -49 14.5 -78.5t65.5 -29.5h164q44 0 75 29.5
t38 78.5l28 204q7 49 -15 78.5t-66 29.5h-164q-44 0 -74.5 -29.5t-37.5 -78.5zM405 819l139 167l71 -71l-167 -139z" />
    <glyph glyph-name="Ocircumflex" unicode="&#xd4;" 
d="M104 520q6 41 23.5 74t44.5 56.5t62 36.5t75 13h357q41 0 72 -13t51.5 -36.5t29 -56.5t2.5 -74l-48 -340q-6 -40 -23.5 -73.5t-44.5 -57t-61.5 -36.5t-75.5 -13h-357q-40 0 -71.5 13t-52 36.5t-29 57t-2.5 73.5zM246 248q-7 -49 14.5 -78.5t65.5 -29.5h164q44 0 75 29.5
t38 78.5l28 204q7 49 -15 78.5t-66 29.5h-164q-44 0 -74.5 -29.5t-37.5 -78.5zM684 775h-124l-57 113l-88 -113h-124l181 174h79z" />
    <glyph glyph-name="Otilde" unicode="&#xd5;" 
d="M104 520q6 41 23.5 74t44.5 56.5t62 36.5t75 13h357q41 0 72 -13t51.5 -36.5t29 -56.5t2.5 -74l-48 -340q-6 -40 -23.5 -73.5t-44.5 -57t-61.5 -36.5t-75.5 -13h-357q-40 0 -71.5 13t-52 36.5t-29 57t-2.5 73.5zM246 248q-7 -49 14.5 -78.5t65.5 -29.5h164q44 0 75 29.5
t38 78.5l28 204q7 49 -15 78.5t-66 29.5h-164q-44 0 -74.5 -29.5t-37.5 -78.5zM290 775q4 30 13.5 58t26 49t41 34t58.5 13q30 0 50 -10t35 -22.5t28.5 -22.5t29.5 -10q9 0 14 5t8 12t4.5 15.5t2.5 14.5h100q-4 -28 -14.5 -54.5t-27.5 -47t-41 -33t-55 -12.5q-42 0 -65 10
t-36 22.5t-20.5 22.5t-17.5 10q-9 0 -15.5 -6t-10 -14t-5.5 -17.5t-3 -16.5h-100z" />
    <glyph glyph-name="Odieresis" unicode="&#xd6;" 
d="M104 520q6 41 23.5 74t44.5 56.5t62 36.5t75 13h357q41 0 72 -13t51.5 -36.5t29 -56.5t2.5 -74l-48 -340q-6 -40 -23.5 -73.5t-44.5 -57t-61.5 -36.5t-75.5 -13h-357q-40 0 -71.5 13t-52 36.5t-29 57t-2.5 73.5zM246 248q-7 -49 14.5 -78.5t65.5 -29.5h164q44 0 75 29.5
t38 78.5l28 204q7 49 -15 78.5t-66 29.5h-164q-44 0 -74.5 -29.5t-37.5 -78.5zM357 857q4 27 22.5 43.5t45.5 16.5t41.5 -16.5t10.5 -43.5t-22.5 -43.5t-45.5 -16.5t-41.5 16.5t-10.5 43.5zM539 857q4 27 22.5 43.5t45.5 16.5t41.5 -16.5t10.5 -43.5t-22.5 -43.5
t-45.5 -16.5t-41.5 16.5t-10.5 43.5z" />
    <glyph glyph-name="multiply" unicode="&#xd7;" horiz-adv-x="435" 
d="M176 537l100 -116l133 117l61 -71l-133 -117l100 -117l-79 -70l-101 117l-133 -117l-61 71l133 117l-100 116z" />
    <glyph glyph-name="Oslash" unicode="&#xd8;" 
d="M104 520q6 41 23.5 74t44.5 56.5t62 36.5t75 13h330l61 83h112l-71 -97q45 -20 66.5 -63t13.5 -103l-48 -340q-6 -40 -23.5 -73.5t-44.5 -57t-61.5 -36.5t-75.5 -13h-330l-61 -83h-112l71 97q-46 20 -67.5 63t-12.5 103zM246 248q-6 -41 10 -71l280 383h-150
q-44 0 -74.5 -29.5t-37.5 -78.5zM341 140h149q44 0 75 29.5t38 78.5l28 204q6 41 -10 70z" />
    <glyph glyph-name="Ugrave" unicode="&#xd9;" horiz-adv-x="724" 
d="M709 180q-6 -40 -23.5 -73.5t-44.5 -57t-61.5 -36.5t-75.5 -13h-283q-40 0 -71.5 13t-52 36.5t-29 57t-2.5 73.5l73 520h180l-63 -452q-7 -49 14.5 -78.5t65.5 -29.5h90q44 0 75 29.5t38 78.5l63 452h180zM348 915l71 71l139 -167l-43 -43z" />
    <glyph glyph-name="Uacute" unicode="&#xda;" horiz-adv-x="724" 
d="M709 180q-6 -40 -23.5 -73.5t-44.5 -57t-61.5 -36.5t-75.5 -13h-283q-40 0 -71.5 13t-52 36.5t-29 57t-2.5 73.5l73 520h180l-63 -452q-7 -49 14.5 -78.5t65.5 -29.5h90q44 0 75 29.5t38 78.5l63 452h180zM390 819l139 167l71 -71l-167 -139z" />
    <glyph glyph-name="Ucircumflex" unicode="&#xdb;" horiz-adv-x="724" 
d="M709 180q-6 -40 -23.5 -73.5t-44.5 -57t-61.5 -36.5t-75.5 -13h-283q-40 0 -71.5 13t-52 36.5t-29 57t-2.5 73.5l73 520h180l-63 -452q-7 -49 14.5 -78.5t65.5 -29.5h90q44 0 75 29.5t38 78.5l63 452h180zM669 775h-124l-57 113l-88 -113h-124l181 174h79z" />
    <glyph glyph-name="Udieresis" unicode="&#xdc;" horiz-adv-x="724" 
d="M709 180q-6 -40 -23.5 -73.5t-44.5 -57t-61.5 -36.5t-75.5 -13h-283q-40 0 -71.5 13t-52 36.5t-29 57t-2.5 73.5l73 520h180l-63 -452q-7 -49 14.5 -78.5t65.5 -29.5h90q44 0 75 29.5t38 78.5l63 452h180zM342 857q4 27 22.5 43.5t45.5 16.5t41.5 -16.5t10.5 -43.5
t-22.5 -43.5t-45.5 -16.5t-41.5 16.5t-10.5 43.5zM524 857q4 27 22.5 43.5t45.5 16.5t41.5 -16.5t10.5 -43.5t-22.5 -43.5t-45.5 -16.5t-41.5 16.5t-10.5 43.5z" />
    <glyph glyph-name="Yacute" unicode="&#xdd;" horiz-adv-x="683" 
d="M423 531l146 169h232l-298 -302zM248 0l46 329l-215 371h217l184 -326l-52 -374h-180zM357 819l139 167l71 -71l-167 -139z" />
    <glyph glyph-name="Thorn" unicode="&#xde;" horiz-adv-x="683" 
d="M149 700h180l-14 -101h193q112 0 161.5 -63.5t33.5 -177.5q-9 -60 -35 -107.5t-65.5 -80.5t-90.5 -50.5t-110 -17.5h-157l-14 -102h-180zM265 242h154q24 0 42 9.5t31 25t20.5 35.5t10.5 42q2 17 1.5 35t-7 34t-20 26t-36.5 10h-166z" />
    <glyph glyph-name="agrave" unicode="&#xe0;" horiz-adv-x="746" 
d="M480 350l-34 126l-142 -244l426 212l-202 -264l-358 -180h-190l406 700h190l74 -268zM576 0l-42 139l144 186l88 -325h-190zM368 915l71 71l139 -167l-43 -43z" />
    <glyph glyph-name="aacute" unicode="&#xe1;" horiz-adv-x="746" 
d="M480 350l-34 126l-142 -244l426 212l-202 -264l-358 -180h-190l406 700h190l74 -268zM576 0l-42 139l144 186l88 -325h-190zM410 819l139 167l71 -71l-167 -139z" />
    <glyph glyph-name="acircumflex" unicode="&#xe2;" horiz-adv-x="746" 
d="M480 350l-34 126l-142 -244l426 212l-202 -264l-358 -180h-190l406 700h190l74 -268zM576 0l-42 139l144 186l88 -325h-190zM689 775h-124l-57 113l-88 -113h-124l181 174h79z" />
    <glyph glyph-name="atilde" unicode="&#xe3;" horiz-adv-x="746" 
d="M480 350l-34 126l-142 -244l426 212l-202 -264l-358 -180h-190l406 700h190l74 -268zM576 0l-42 139l144 186l88 -325h-190zM295 775q4 30 13.5 58t26 49t41 34t58.5 13q30 0 50 -10t35 -22.5t28.5 -22.5t29.5 -10q9 0 14 5t8 12t4.5 15.5t2.5 14.5h100
q-4 -28 -14.5 -54.5t-27.5 -47t-41 -33t-55 -12.5q-42 0 -65 10t-36 22.5t-20.5 22.5t-17.5 10q-9 0 -15.5 -6t-10 -14t-5.5 -17.5t-3 -16.5h-100z" />
    <glyph glyph-name="adieresis" unicode="&#xe4;" horiz-adv-x="746" 
d="M480 350l-34 126l-142 -244l426 212l-202 -264l-358 -180h-190l406 700h190l74 -268zM576 0l-42 139l144 186l88 -325h-190zM362 857q4 27 22.5 43.5t45.5 16.5t41.5 -16.5t10.5 -43.5t-22.5 -43.5t-45.5 -16.5t-41.5 16.5t-10.5 43.5zM544 857q4 27 22.5 43.5t45.5 16.5
t41.5 -16.5t10.5 -43.5t-22.5 -43.5t-45.5 -16.5t-41.5 16.5t-10.5 43.5z" />
    <glyph glyph-name="aring" unicode="&#xe5;" horiz-adv-x="746" 
d="M480 350l-34 126l-142 -244l426 212l-202 -264l-358 -180h-190l406 700h190l74 -268zM576 0l-42 139l144 186l88 -325h-190zM379 887q7 50 46.5 80.5t99.5 30.5q58 0 88.5 -30.5t23.5 -80.5q-7 -51 -46.5 -81.5t-97.5 -30.5q-60 0 -90.5 30.5t-23.5 81.5zM479 887
q-2 -14 5 -23t21 -9q13 0 21.5 9t10.5 23t-4.5 22.5t-19.5 8.5q-14 0 -23 -8.5t-11 -22.5z" />
    <glyph glyph-name="ae" unicode="&#xe6;" horiz-adv-x="1032" 
d="M386 700h714l-19 -140h-371l-19 -140h340l-183 -140h-177l-19 -140h379l-19 -140h-560l78 560h-35l-325 -560h-190z" />
    <glyph glyph-name="ccedilla" unicode="&#xe7;" horiz-adv-x="679" 
d="M211 0q-40 0 -71.5 13t-52 36.5t-29 57t-2.5 73.5l48 340q6 41 23.5 74t44.5 56.5t62 36.5t75 13h395l-99 -140h-219q-44 0 -74.5 -29.5t-37.5 -78.5l-28 -204q-7 -49 14.5 -78.5t65.5 -29.5h234l99 -140h-448zM445 -29q14 0 29 -3.5t27 -13t18 -26t2 -41.5
q-7 -50 -46.5 -78.5t-105.5 -28.5q-43 0 -76 11.5t-65 35.5l65 62q20 -15 39.5 -22t47.5 -7q13 0 25.5 3.5t14.5 18.5q2 17 -7.5 22t-16.5 5h-101l58 91h109z" />
    <glyph glyph-name="egrave" unicode="&#xe8;" horiz-adv-x="631" 
d="M149 700h550l-19 -140h-371l-19 -140h340l-183 -140h-177l-19 -140h379l-19 -140h-560zM320 915l71 71l139 -167l-43 -43z" />
    <glyph glyph-name="eacute" unicode="&#xe9;" horiz-adv-x="631" 
d="M149 700h550l-19 -140h-371l-19 -140h340l-183 -140h-177l-19 -140h379l-19 -140h-560zM362 819l139 167l71 -71l-167 -139z" />
    <glyph glyph-name="ecircumflex" unicode="&#xea;" horiz-adv-x="631" 
d="M149 700h550l-19 -140h-371l-19 -140h340l-183 -140h-177l-19 -140h379l-19 -140h-560zM641 775h-124l-57 113l-88 -113h-124l181 174h79z" />
    <glyph glyph-name="edieresis" unicode="&#xeb;" horiz-adv-x="631" 
d="M149 700h550l-19 -140h-371l-19 -140h340l-183 -140h-177l-19 -140h379l-19 -140h-560zM314 857q4 27 22.5 43.5t45.5 16.5t41.5 -16.5t10.5 -43.5t-22.5 -43.5t-45.5 -16.5t-41.5 16.5t-10.5 43.5zM496 857q4 27 22.5 43.5t45.5 16.5t41.5 -16.5t10.5 -43.5t-22.5 -43.5
t-45.5 -16.5t-41.5 16.5t-10.5 43.5z" />
    <glyph glyph-name="igrave" unicode="&#xec;" horiz-adv-x="282" 
d="M122 508l27 192h180l-6 -47zM116 464l200 145l-85 -609h-180zM135 915l71 71l139 -167l-43 -43z" />
    <glyph glyph-name="iacute" unicode="&#xed;" horiz-adv-x="282" 
d="M122 508l27 192h180l-6 -47zM116 464l200 145l-85 -609h-180zM177 819l139 167l71 -71l-167 -139z" />
    <glyph glyph-name="icircumflex" unicode="&#xee;" horiz-adv-x="282" 
d="M122 508l27 192h180l-6 -47zM116 464l200 145l-85 -609h-180zM456 775h-124l-57 113l-88 -113h-124l181 174h79z" />
    <glyph glyph-name="idieresis" unicode="&#xef;" horiz-adv-x="282" 
d="M122 508l27 192h180l-6 -47zM116 464l200 145l-85 -609h-180zM129 857q4 27 22.5 43.5t45.5 16.5t41.5 -16.5t10.5 -43.5t-22.5 -43.5t-45.5 -16.5t-41.5 16.5t-10.5 43.5zM311 857q4 27 22.5 43.5t45.5 16.5t41.5 -16.5t10.5 -43.5t-22.5 -43.5t-45.5 -16.5t-41.5 16.5
t-10.5 43.5z" />
    <glyph glyph-name="ntilde" unicode="&#xf1;" horiz-adv-x="805" 
d="M149 700h180l279 -465l65 465h180l-98 -700h-180l-279 465l-65 -465h-180zM305 775q4 30 13.5 58t26 49t41 34t58.5 13q30 0 50 -10t35 -22.5t28.5 -22.5t29.5 -10q9 0 14 5t8 12t4.5 15.5t2.5 14.5h100q-4 -28 -14.5 -54.5t-27.5 -47t-41 -33t-55 -12.5q-42 0 -65 10
t-36 22.5t-20.5 22.5t-17.5 10q-9 0 -15.5 -6t-10 -14t-5.5 -17.5t-3 -16.5h-100z" />
    <glyph glyph-name="ograve" unicode="&#xf2;" 
d="M104 520q6 41 23.5 74t44.5 56.5t62 36.5t75 13h357q41 0 72 -13t51.5 -36.5t29 -56.5t2.5 -74l-48 -340q-6 -40 -23.5 -73.5t-44.5 -57t-61.5 -36.5t-75.5 -13h-357q-40 0 -71.5 13t-52 36.5t-29 57t-2.5 73.5zM246 248q-7 -49 14.5 -78.5t65.5 -29.5h164q44 0 75 29.5
t38 78.5l28 204q7 49 -15 78.5t-66 29.5h-164q-44 0 -74.5 -29.5t-37.5 -78.5zM363 915l71 71l139 -167l-43 -43z" />
    <glyph glyph-name="oacute" unicode="&#xf3;" 
d="M104 520q6 41 23.5 74t44.5 56.5t62 36.5t75 13h357q41 0 72 -13t51.5 -36.5t29 -56.5t2.5 -74l-48 -340q-6 -40 -23.5 -73.5t-44.5 -57t-61.5 -36.5t-75.5 -13h-357q-40 0 -71.5 13t-52 36.5t-29 57t-2.5 73.5zM246 248q-7 -49 14.5 -78.5t65.5 -29.5h164q44 0 75 29.5
t38 78.5l28 204q7 49 -15 78.5t-66 29.5h-164q-44 0 -74.5 -29.5t-37.5 -78.5zM405 819l139 167l71 -71l-167 -139z" />
    <glyph glyph-name="ocircumflex" unicode="&#xf4;" 
d="M104 520q6 41 23.5 74t44.5 56.5t62 36.5t75 13h357q41 0 72 -13t51.5 -36.5t29 -56.5t2.5 -74l-48 -340q-6 -40 -23.5 -73.5t-44.5 -57t-61.5 -36.5t-75.5 -13h-357q-40 0 -71.5 13t-52 36.5t-29 57t-2.5 73.5zM246 248q-7 -49 14.5 -78.5t65.5 -29.5h164q44 0 75 29.5
t38 78.5l28 204q7 49 -15 78.5t-66 29.5h-164q-44 0 -74.5 -29.5t-37.5 -78.5zM684 775h-124l-57 113l-88 -113h-124l181 174h79z" />
    <glyph glyph-name="otilde" unicode="&#xf5;" 
d="M104 520q6 41 23.5 74t44.5 56.5t62 36.5t75 13h357q41 0 72 -13t51.5 -36.5t29 -56.5t2.5 -74l-48 -340q-6 -40 -23.5 -73.5t-44.5 -57t-61.5 -36.5t-75.5 -13h-357q-40 0 -71.5 13t-52 36.5t-29 57t-2.5 73.5zM246 248q-7 -49 14.5 -78.5t65.5 -29.5h164q44 0 75 29.5
t38 78.5l28 204q7 49 -15 78.5t-66 29.5h-164q-44 0 -74.5 -29.5t-37.5 -78.5zM290 775q4 30 13.5 58t26 49t41 34t58.5 13q30 0 50 -10t35 -22.5t28.5 -22.5t29.5 -10q9 0 14 5t8 12t4.5 15.5t2.5 14.5h100q-4 -28 -14.5 -54.5t-27.5 -47t-41 -33t-55 -12.5q-42 0 -65 10
t-36 22.5t-20.5 22.5t-17.5 10q-9 0 -15.5 -6t-10 -14t-5.5 -17.5t-3 -16.5h-100z" />
    <glyph glyph-name="odieresis" unicode="&#xf6;" 
d="M104 520q6 41 23.5 74t44.5 56.5t62 36.5t75 13h357q41 0 72 -13t51.5 -36.5t29 -56.5t2.5 -74l-48 -340q-6 -40 -23.5 -73.5t-44.5 -57t-61.5 -36.5t-75.5 -13h-357q-40 0 -71.5 13t-52 36.5t-29 57t-2.5 73.5zM246 248q-7 -49 14.5 -78.5t65.5 -29.5h164q44 0 75 29.5
t38 78.5l28 204q7 49 -15 78.5t-66 29.5h-164q-44 0 -74.5 -29.5t-37.5 -78.5zM357 857q4 27 22.5 43.5t45.5 16.5t41.5 -16.5t10.5 -43.5t-22.5 -43.5t-45.5 -16.5t-41.5 16.5t-10.5 43.5zM539 857q4 27 22.5 43.5t45.5 16.5t41.5 -16.5t10.5 -43.5t-22.5 -43.5
t-45.5 -16.5t-41.5 16.5t-10.5 43.5z" />
    <glyph glyph-name="divide" unicode="&#xf7;" horiz-adv-x="421" 
d="M195 496q6 38 32.5 61.5t64.5 23.5t58.5 -23.5t14.5 -61.5q-5 -38 -32 -61.5t-65 -23.5t-58 23.5t-15 61.5zM81 358h360l-14 -100h-360zM143 121q5 38 32 61.5t65 23.5t58 -23.5t15 -61.5q-6 -38 -32.5 -61.5t-64.5 -23.5t-58.5 23.5t-14.5 61.5z" />
    <glyph glyph-name="oslash" unicode="&#xf8;" 
d="M104 520q6 41 23.5 74t44.5 56.5t62 36.5t75 13h330l61 83h112l-71 -97q45 -20 66.5 -63t13.5 -103l-48 -340q-6 -40 -23.5 -73.5t-44.5 -57t-61.5 -36.5t-75.5 -13h-330l-61 -83h-112l71 97q-46 20 -67.5 63t-12.5 103zM246 248q-6 -41 10 -71l280 383h-150
q-44 0 -74.5 -29.5t-37.5 -78.5zM341 140h149q44 0 75 29.5t38 78.5l28 204q6 41 -10 70z" />
    <glyph glyph-name="ugrave" unicode="&#xf9;" horiz-adv-x="724" 
d="M709 180q-6 -40 -23.5 -73.5t-44.5 -57t-61.5 -36.5t-75.5 -13h-283q-40 0 -71.5 13t-52 36.5t-29 57t-2.5 73.5l73 520h180l-63 -452q-7 -49 14.5 -78.5t65.5 -29.5h90q44 0 75 29.5t38 78.5l63 452h180zM348 915l71 71l139 -167l-43 -43z" />
    <glyph glyph-name="uacute" unicode="&#xfa;" horiz-adv-x="724" 
d="M709 180q-6 -40 -23.5 -73.5t-44.5 -57t-61.5 -36.5t-75.5 -13h-283q-40 0 -71.5 13t-52 36.5t-29 57t-2.5 73.5l73 520h180l-63 -452q-7 -49 14.5 -78.5t65.5 -29.5h90q44 0 75 29.5t38 78.5l63 452h180zM390 819l139 167l71 -71l-167 -139z" />
    <glyph glyph-name="ucircumflex" unicode="&#xfb;" horiz-adv-x="724" 
d="M709 180q-6 -40 -23.5 -73.5t-44.5 -57t-61.5 -36.5t-75.5 -13h-283q-40 0 -71.5 13t-52 36.5t-29 57t-2.5 73.5l73 520h180l-63 -452q-7 -49 14.5 -78.5t65.5 -29.5h90q44 0 75 29.5t38 78.5l63 452h180zM669 775h-124l-57 113l-88 -113h-124l181 174h79z" />
    <glyph glyph-name="udieresis" unicode="&#xfc;" horiz-adv-x="724" 
d="M709 180q-6 -40 -23.5 -73.5t-44.5 -57t-61.5 -36.5t-75.5 -13h-283q-40 0 -71.5 13t-52 36.5t-29 57t-2.5 73.5l73 520h180l-63 -452q-7 -49 14.5 -78.5t65.5 -29.5h90q44 0 75 29.5t38 78.5l63 452h180zM342 857q4 27 22.5 43.5t45.5 16.5t41.5 -16.5t10.5 -43.5
t-22.5 -43.5t-45.5 -16.5t-41.5 16.5t-10.5 43.5zM524 857q4 27 22.5 43.5t45.5 16.5t41.5 -16.5t10.5 -43.5t-22.5 -43.5t-45.5 -16.5t-41.5 16.5t-10.5 43.5z" />
    <glyph glyph-name="yacute" unicode="&#xfd;" horiz-adv-x="683" 
d="M423 531l146 169h232l-298 -302zM248 0l46 329l-215 371h217l184 -326l-52 -374h-180zM357 819l139 167l71 -71l-167 -139z" />
    <glyph glyph-name="thorn" unicode="&#xfe;" horiz-adv-x="683" 
d="M149 700h180l-14 -101h193q112 0 161.5 -63.5t33.5 -177.5q-9 -60 -35 -107.5t-65.5 -80.5t-90.5 -50.5t-110 -17.5h-157l-14 -102h-180zM265 242h154q24 0 42 9.5t31 25t20.5 35.5t10.5 42q2 17 1.5 35t-7 34t-20 26t-36.5 10h-166z" />
    <glyph glyph-name="ydieresis" unicode="&#xff;" horiz-adv-x="683" 
d="M423 531l146 169h232l-298 -302zM248 0l46 329l-215 371h217l184 -326l-52 -374h-180zM309 857q4 27 22.5 43.5t45.5 16.5t41.5 -16.5t10.5 -43.5t-22.5 -43.5t-45.5 -16.5t-41.5 16.5t-10.5 43.5zM491 857q4 27 22.5 43.5t45.5 16.5t41.5 -16.5t10.5 -43.5t-22.5 -43.5
t-45.5 -16.5t-41.5 16.5t-10.5 43.5z" />
    <glyph glyph-name="Dcroat" unicode="&#x110;" horiz-adv-x="865" 
d="M225 700h528q41 0 72 -13t51.5 -36.5t29 -56.5t2.5 -74l-48 -340q-6 -40 -23.5 -72.5t-44.5 -55.5t-61.5 -36.5t-75.5 -15.5h-528l41 294h-106l14 100h106zM327 140h250q44 0 75 29.5t38 78.5l28 204q7 49 -15 78.5t-66 29.5h-252l-23 -166h140l-14 -100h-140z" />
    <glyph glyph-name="dcroat" unicode="&#x111;" horiz-adv-x="865" 
d="M225 700h528q41 0 72 -13t51.5 -36.5t29 -56.5t2.5 -74l-48 -340q-6 -40 -23.5 -72.5t-44.5 -55.5t-61.5 -36.5t-75.5 -15.5h-528l41 294h-106l14 100h106zM327 140h250q44 0 75 29.5t38 78.5l28 204q7 49 -15 78.5t-66 29.5h-252l-23 -166h140l-14 -100h-140z" />
    <glyph glyph-name="Lslash" unicode="&#x141;" horiz-adv-x="680" 
d="M238 700h180l-34 -245l84 53l54 -85l-156 -98l-26 -185h339l-19 -140h-520l28 202l-71 -45l-53 84l142 90z" />
    <glyph glyph-name="lslash" unicode="&#x142;" horiz-adv-x="680" 
d="M238 700h180l-34 -245l84 53l54 -85l-156 -98l-26 -185h339l-19 -140h-520l28 202l-71 -45l-53 84l142 90z" />
    <glyph glyph-name="OE" unicode="&#x152;" horiz-adv-x="980" 
d="M211 0q-40 0 -71.5 13t-52 36.5t-29 57t-2.5 73.5l48 340q6 41 23.5 74t44.5 56.5t62 36.5t75 13h739l-19 -140h-371l-19 -140h340l-183 -140h-177l-19 -140h379l-19 -140h-749zM420 140l58 420h-92q-44 0 -74.5 -29.5t-37.5 -78.5l-28 -204q-7 -49 14.5 -78.5
t65.5 -29.5h94z" />
    <glyph glyph-name="oe" unicode="&#x153;" horiz-adv-x="980" 
d="M211 0q-40 0 -71.5 13t-52 36.5t-29 57t-2.5 73.5l48 340q6 41 23.5 74t44.5 56.5t62 36.5t75 13h739l-19 -140h-371l-19 -140h340l-183 -140h-177l-19 -140h379l-19 -140h-749zM420 140l58 420h-92q-44 0 -74.5 -29.5t-37.5 -78.5l-28 -204q-7 -49 14.5 -78.5
t65.5 -29.5h94z" />
    <glyph glyph-name="Scaron" unicode="&#x160;" horiz-adv-x="716" 
d="M441 418q77 0 130 -11.5t85.5 -33t46.5 -53.5t14 -73q0 -45 -13.5 -89.5t-40 -79.5t-65 -56.5t-88.5 -21.5h-480l99 140h330q38 0 55.5 22t21.5 50q5 35 -25 50.5t-90 15.5h-93q-111 0 -162 44.5t-51 126.5q0 43 13 87.5t38 81t62 59.5t85 23h452l-99 -140h-274
q-19 0 -35.5 -6t-29 -16.5t-20.5 -24t-10 -27.5q-5 -36 25 -52t90 -16h29zM281 949h124l57 -113l88 113h124l-181 -174h-79z" />
    <glyph glyph-name="scaron" unicode="&#x161;" horiz-adv-x="716" 
d="M441 418q77 0 130 -11.5t85.5 -33t46.5 -53.5t14 -73q0 -45 -13.5 -89.5t-40 -79.5t-65 -56.5t-88.5 -21.5h-480l99 140h330q38 0 55.5 22t21.5 50q5 35 -25 50.5t-90 15.5h-93q-111 0 -162 44.5t-51 126.5q0 43 13 87.5t38 81t62 59.5t85 23h452l-99 -140h-274
q-19 0 -35.5 -6t-29 -16.5t-20.5 -24t-10 -27.5q-5 -36 25 -52t90 -16h29zM281 949h124l57 -113l88 113h124l-181 -174h-79z" />
    <glyph glyph-name="Ydieresis" unicode="&#x178;" horiz-adv-x="683" 
d="M423 531l146 169h232l-298 -302zM248 0l46 329l-215 371h217l184 -326l-52 -374h-180zM309 857q4 27 22.5 43.5t45.5 16.5t41.5 -16.5t10.5 -43.5t-22.5 -43.5t-45.5 -16.5t-41.5 16.5t-10.5 43.5zM491 857q4 27 22.5 43.5t45.5 16.5t41.5 -16.5t10.5 -43.5t-22.5 -43.5
t-45.5 -16.5t-41.5 16.5t-10.5 43.5z" />
    <glyph glyph-name="Zcaron" unicode="&#x17d;" horiz-adv-x="642" 
d="M180 700h530l-380 -560h249l-19 -140h-530l380 560h-249zM203 949h124l57 -113l88 113h124l-181 -174h-79z" />
    <glyph glyph-name="zcaron" unicode="&#x17e;" horiz-adv-x="642" 
d="M180 700h530l-380 -560h249l-19 -140h-530l380 560h-249zM203 949h124l57 -113l88 113h124l-181 -174h-79z" />
    <glyph glyph-name="circumflex" unicode="&#x2c6;" horiz-adv-x="454" 
d="M494 500h-124l-57 113l-88 -113h-124l181 174h79z" />
    <glyph glyph-name="caron" unicode="&#x2c7;" horiz-adv-x="454" 
d="M125 674h124l57 -113l88 113h124l-181 -174h-79z" />
    <glyph glyph-name="ring" unicode="&#x2da;" horiz-adv-x="319" 
d="M116 609q7 50 46.5 80.5t99.5 30.5q58 0 88.5 -30.5t23.5 -80.5q-7 -51 -46.5 -81.5t-97.5 -30.5q-60 0 -90.5 30.5t-23.5 81.5zM216 609q-2 -14 5 -23t21 -9q13 0 21.5 9t10.5 23t-4.5 22.5t-19.5 8.5q-14 0 -23 -8.5t-11 -22.5z" />
    <glyph glyph-name="tilde" unicode="&#x2dc;" horiz-adv-x="453" 
d="M101 500q4 30 13.5 58t26 49t41 34t58.5 13q30 0 50 -10t35 -22.5t28.5 -22.5t29.5 -10q9 0 14 5t8 12t4.5 15.5t2.5 14.5h100q-4 -28 -14.5 -54.5t-27.5 -47t-41 -33t-55 -12.5q-42 0 -65 10t-36 22.5t-20.5 22.5t-17.5 10q-9 0 -15.5 -6t-10 -14t-5.5 -17.5t-3 -16.5
h-100z" />
    <glyph glyph-name="gravecomb" unicode="&#x300;" horiz-adv-x="0" 
d="M-55 640l71 71l139 -167l-43 -43z" />
    <glyph glyph-name="acutecomb" unicode="&#x301;" horiz-adv-x="0" 
d="M-13 544l139 167l71 -71l-167 -139z" />
    <glyph glyph-name="uni0302" unicode="&#x302;" horiz-adv-x="0" 
d="M266 500h-124l-57 113l-88 -113h-124l181 174h79z" />
    <glyph glyph-name="tildecomb" unicode="&#x303;" horiz-adv-x="0" 
d="M-128 500q4 30 13.5 58t26 49t41 34t58.5 13q30 0 50 -10t35 -22.5t28.5 -22.5t29.5 -10q9 0 14 5t8 12t4.5 15.5t2.5 14.5h100q-4 -28 -14.5 -54.5t-27.5 -47t-41 -33t-55 -12.5q-42 0 -65 10t-36 22.5t-20.5 22.5t-17.5 10q-9 0 -15.5 -6t-10 -14t-5.5 -17.5t-3 -16.5
h-100z" />
    <glyph glyph-name="uni0308" unicode="&#x308;" horiz-adv-x="0" 
d="M-61 582q4 27 22.5 43.5t45.5 16.5t41.5 -16.5t10.5 -43.5t-22.5 -43.5t-45.5 -16.5t-41.5 16.5t-10.5 43.5zM121 582q4 27 22.5 43.5t45.5 16.5t41.5 -16.5t10.5 -43.5t-22.5 -43.5t-45.5 -16.5t-41.5 16.5t-10.5 43.5z" />
    <glyph glyph-name="uni030A" unicode="&#x30a;" horiz-adv-x="0" 
d="M-49 609q7 50 46.5 80.5t99.5 30.5q58 0 88.5 -30.5t23.5 -80.5q-7 -51 -46.5 -81.5t-97.5 -30.5q-60 0 -90.5 30.5t-23.5 81.5zM51 609q-2 -14 5 -23t21 -9q13 0 21.5 9t10.5 23t-4.5 22.5t-19.5 8.5q-14 0 -23 -8.5t-11 -22.5z" />
    <glyph glyph-name="uni030C" unicode="&#x30c;" horiz-adv-x="0" 
d="M-97 674h124l57 -113l88 113h124l-181 -174h-79z" />
    <glyph glyph-name="uni0327" unicode="&#x327;" horiz-adv-x="0" 
d="M66 -29q14 0 29 -3.5t27 -13t18 -26t2 -41.5q-7 -50 -46.5 -78.5t-105.5 -28.5q-43 0 -76 11.5t-65 35.5l65 62q20 -15 39.5 -22t47.5 -7q13 0 25.5 3.5t14.5 18.5q2 17 -7.5 22t-16.5 5h-101l58 91h109z" />
    <glyph glyph-name="endash" unicode="&#x2013;" horiz-adv-x="481" 
d="M77 328h420l-14 -100h-420z" />
    <glyph glyph-name="emdash" unicode="&#x2014;" horiz-adv-x="981" 
d="M77 328h920l-14 -100h-920z" />
    <glyph glyph-name="quoteleft" unicode="&#x2018;" horiz-adv-x="203" 
d="M122 606q4 31 25 49.5t52 18.5t47 -18.5t12 -49.5q-2 -11 -7 -23t-13 -20l-108 -111h-36l61 90q-19 7 -28 23.5t-5 40.5z" />
    <glyph glyph-name="quoteright" unicode="&#x2019;" horiz-adv-x="204" 
d="M240 520q-5 -31 -25.5 -49.5t-51.5 -18.5t-47.5 18.5t-11.5 49.5q2 11 7 23t13 20l108 111h36l-61 -90q39 -14 33 -64z" />
    <glyph glyph-name="quotesinglbase" unicode="&#x201a;" horiz-adv-x="204" 
d="M45 56q4 31 25 49.5t52 18.5t47 -18.5t12 -49.5q-2 -11 -7 -23t-13 -20l-108 -111h-36l61 90q-19 7 -28 23.5t-5 40.5z" />
    <glyph glyph-name="quotedblleft" unicode="&#x201c;" horiz-adv-x="368" 
d="M404 520q-5 -31 -25.5 -49.5t-51.5 -18.5t-47.5 18.5t-11.5 49.5q2 11 7 23t13 20l108 111h36l-61 -90q39 -14 33 -64zM240 520q-5 -31 -25.5 -49.5t-51.5 -18.5t-47.5 18.5t-11.5 49.5q2 11 7 23t13 20l108 111h36l-61 -90q39 -14 33 -64z" />
    <glyph glyph-name="quotedblright" unicode="&#x201d;" horiz-adv-x="367" 
d="M122 606q4 31 25 49.5t52 18.5t47 -18.5t12 -49.5q-2 -11 -7 -23t-13 -20l-108 -111h-36l61 90q-19 7 -28 23.5t-5 40.5zM286 606q4 31 25 49.5t52 18.5t47 -18.5t12 -49.5q-2 -11 -7 -23t-13 -20l-108 -111h-36l61 90q-19 7 -28 23.5t-5 40.5z" />
    <glyph glyph-name="quotedblbase" unicode="&#x201e;" horiz-adv-x="368" 
d="M45 56q4 31 25 49.5t52 18.5t47 -18.5t12 -49.5q-2 -11 -7 -23t-13 -20l-108 -111h-36l61 90q-19 7 -28 23.5t-5 40.5zM209 56q4 31 25 49.5t52 18.5t47 -18.5t12 -49.5q-2 -11 -7 -23t-13 -20l-108 -111h-36l61 90q-19 7 -28 23.5t-5 40.5z" />
    <glyph glyph-name="Euro" unicode="&#x20ac;" horiz-adv-x="781" 
d="M313 0q-40 0 -71.5 13t-52 36.5t-29 57t-2.5 73.5l4 27h-122l14 100h122l11 80h-121l14 100h121l5 33q6 41 23.5 74t44.5 56.5t62 36.5t75 13h395l-99 -140h-219q-35 0 -62 -19.5t-41 -53.5h181l-14 -100h-185l-11 -80h184l-14 -100h-178q5 -31 25.5 -49t54.5 -18h234
l99 -140h-448z" />
    <glyph glyph-name="minus" unicode="&#x2212;" horiz-adv-x="421" 
d="M77 328h360l-14 -100h-360z" />
    <glyph glyph-name="T_T" horiz-adv-x="1095" 
d="M99 700h1094l-99 -140h-156l-78 -560h-180l78 560h-264l-78 -560h-180l78 560h-116z" />
    <glyph glyph-name="F_T" horiz-adv-x="1059" 
d="M149 700h1008l-99 -140h-156l-78 -560h-180l78 560h-413l-19 -140h320l-183 -140h-157l-39 -280h-180z" />
    <glyph glyph-name="S_T" horiz-adv-x="1187" 
d="M441 418q77 0 130 -11.5t85.5 -33t46.5 -53.5t14 -73q0 -45 -13.5 -89.5t-40 -79.5t-65 -56.5t-88.5 -21.5h-480l99 140h330q38 0 55.5 22t21.5 50q5 35 -25 50.5t-90 15.5h-93q-111 0 -162 44.5t-51 126.5q0 43 13 87.5t38 81t62 59.5t85 23h972l-99 -140h-156l-78 -560
h-180l78 560h-458q-19 0 -35.5 -6t-29 -16.5t-20.5 -24t-10 -27.5q-5 -36 25 -52t90 -16h29z" />
    <glyph glyph-name="L_A" horiz-adv-x="1147" 
d="M149 700h180l-78 -560h211l325 560h190l74 -268l-170 -82l-34 126l-142 -244l426 212l-202 -264l-358 -180h-520zM977 0l-42 139l144 186l88 -325h-190z" />
    </font>
</defs>
</svg>
